Loading...
Error

Вечные / Eternals (Хлоя Чжао) [2021 г., фантастика, фэнтези, боевик, драма, приключения, комикс, супергерой, BDRemux 1080p] Dub (iTunes) + Original (Eng) + Sub (Rus, Eng)

Статистика раздачи
Размер:  33.83 GB   |    Зарегистрирован:  3 месяца 22 дня   |    Скачан:  8 раз

Полного источника не было: 8 часов

Сидов:  0  |  0 KB/s  ]   Личеров:  0  |  0 KB/s  ]

* - сиды/пиры с внешних источников

   
 
Автор Сообщение

90ytr90 

25-Янв-2022 10:09

Вечные / Eternals
«В начале были...»

Страна: Великобритания, США
Год выпуска: 2021
Жанр: фантастика, фэнтези, боевик, драма, приключения, комикс, супергерой
Продолжительность: 02:35:50
Озвучивание:
  • профессиональное (полное дублирование) [iTunes]
  • оригинальная звуковая дорожка [английский]

Режиссёр: Хлоя Чжао / Chloé Zhao

В ролях:
    Джемма Чан, Ричард Мэдден, Анджелина Джоли, Сальма Хайек, Кит Харингтон, Кумэйл Нанджиани, Лиа МакХью, Брайан Тайри Генри, Лорен Ридлофф, Барри Кеоган


Сюжет фильма:
    Вечные — представители расы генетически улучшенных суперлюдей, тайно живущих на Земле. Они появились на свет 5 миллионов лет назад в результате экспериментов могущественных целестиалов. Наделённые невероятными суперспособностями, на протяжении тысячелетий они скрывались от человеческой цивилизации, втайне защищая людей от монструозных девиантов. Однако, последние события и действия Таноса заставили их выйти на свет.

  • Дата мировой премьеры: 18 октября 2021
  • Дата российской премьеры: 8 ноября 2021
             
Качество видео: BDRemux 1080p
Формат: MKV
Видео: AVC, 1920x1080 (16:9), 25.8 Mbps, 23.976 (24000/1001) fps, 0.520 bit/pixel
Аудио #1: AC3, 384 kbps, 6 ch, 48 kHz, Dub [iTunes]
Аудио #2: DTS-HD MA, 4849 kbps, 8 ch, 48 kHz, Original [English]
Субтитры: Russian (forced, full), English (forced, full, SDH)
Навигация по главам: есть (27)

Сборка: seleZen
General 
Unique ID : 212522859418788674655026823219256042084 (0x9FE269F42E229A5E498C1FBFF5992264)
Complete name : D:VideoEternals.2021.BDREMUX.1080p.seleZen.mkv
Format : Matroska
Format version : Version 4
File size : 33.8 GiB
Duration : 2 h 35 min
Overall bit rate mode : Variable
Overall bit rate : 31.1 Mb/s
Movie name : Eternals 2021 from seleZen
Encoded date : UTC 2022-01-25 03:53:49
Writing application : mkvmerge v59.0.0 ('Shining Star') 64-bit
Writing library : libebml v1.4.2 + libmatroska v1.6.4

Video
ID : 1
Format : AVC
Format/Info : Advanced Video Codec
Format profile : [email protected]
Format settings : CABAC / 4 Ref Frames
Format settings, CABAC : Yes
Format settings, Reference : 4 frames
Codec ID : V_MPEG4/ISO/AVC
Duration : 2 h 35 min
Bit rate mode : Variable
Bit rate : 25.8 Mb/s
Maximum bit rate : 36.0 Mb/s
Width : 1 920 pixels
Height : 1 080 pixels
Display aspect ratio : 16:9
Frame rate mode : Constant
Frame rate : 23.976 (24000/1001) FPS
Color space : YUV
Chroma subsampling : 4:2:0
Bit depth : 8 bits
Scan type : Progressive
Bits/(Pixel*Frame) : 0.520
Stream size : 28.1 GiB (83%)
Language : English
Default : Yes
Forced : No

Audio #1
ID : 2
Format : AC-3
Format/Info : Audio Coding 3
Commercial name : Dolby Digital
Codec ID : A_AC3
Duration : 2 h 35 min
Bit rate mode : Constant
Bit rate : 384 kb/s
Channel(s) : 6 channels
Channel layout : L R C LFE Ls Rs
Sampling rate : 48.0 kHz
Frame rate : 31.250 FPS (1536 SPF)
Compression mode : Lossy
Stream size : 428 MiB (1%)
Title : iTunes
Language : Russian
Service kind : Complete Main
Default : Yes
Forced : Yes

Audio #2
ID : 3
Format : DTS XLL
Format/Info : Digital Theater Systems
Commercial name : DTS-HD Master Audio
Codec ID : A_DTS
Duration : 2 h 35 min
Bit rate mode : Variable
Bit rate : 4 849 kb/s
Channel(s) : 8 channels
Channel layout : C L R LFE Lb Rb Lss Rss
Sampling rate : 48.0 kHz
Frame rate : 93.750 FPS (512 SPF)
Bit depth : 24 bits
Compression mode : Lossless
Stream size : 5.28 GiB (16%)
Title : Original
Language : English
Default : No
Forced : No

Text #1
ID : 4
Format : UTF-8
Codec ID : S_TEXT/UTF8
Codec ID/Info : UTF-8 Plain Text
Duration : 2 h 35 min
Bit rate : 4 b/s
Count of elements : 117
Stream size : 5.07 KiB (0%)
Title : Forced
Language : Russian
Default : Yes
Forced : Yes

Text #2
ID : 5
Format : UTF-8
Codec ID : S_TEXT/UTF8
Codec ID/Info : UTF-8 Plain Text
Duration : 2 h 33 min
Bit rate : 65 b/s
Count of elements : 1542
Stream size : 73.6 KiB (0%)
Title : Full
Language : Russian
Default : No
Forced : No

Text #3
ID : 6
Format : UTF-8
Codec ID : S_TEXT/UTF8
Codec ID/Info : UTF-8 Plain Text
Duration : 2 h 32 min
Bit rate : 1 b/s
Count of elements : 81
Stream size : 1.78 KiB (0%)
Title : Forced
Language : English
Default : No
Forced : No

Text #4
ID : 7
Format : UTF-8
Codec ID : S_TEXT/UTF8
Codec ID/Info : UTF-8 Plain Text
Duration : 2 h 33 min
Bit rate : 42 b/s
Count of elements : 1786
Stream size : 47.2 KiB (0%)
Title : Full
Language : English
Default : No
Forced : No

Text #5
ID : 8
Format : UTF-8
Codec ID : S_TEXT/UTF8
Codec ID/Info : UTF-8 Plain Text
Duration : 2 h 33 min
Bit rate : 52 b/s
Count of elements : 2212
Stream size : 59.0 KiB (0%)
Title : SDH
Language : English
Default : No
Forced : No

Menu
00:00:00.000 : Глава 01
00:06:43.194 : Глава 02
00:20:22.888 : Глава 03
00:31:11.703 : Глава 04
00:35:04.436 : Глава 05
00:43:01.412 : Глава 06
00:49:29.008 : Глава 07
00:55:50.097 : Глава 08
01:02:29.537 : Глава 09
01:07:56.531 : Глава 10
01:10:39.569 : Глава 11
01:18:58.275 : Глава 12
01:24:36.780 : Глава 13
01:29:56.516 : Глава 14
01:36:03.049 : Глава 15
01:42:47.578 : Глава 16
01:46:27.881 : Глава 17
01:51:51.163 : Глава 18
01:55:57.951 : Глава 19
02:01:46.132 : Глава 20
02:06:30.249 : Глава 21
02:11:41.894 : Глава 22
02:16:32.351 : Глава 23
02:23:10.665 : Глава 24
02:25:45.028 : Глава 25
02:27:56.493 : Глава 26
02:34:27.175 : Глава 27


pic pic pic pic pic

Этот торрент недоступен для скачивания без регистрации, однако доступен по публичной magnet-ссылке (источники с публичных трекеров). Перед использованием ссылки прочтите, пожалуйста Пользовательское соглашение, а также как можно дольше оставайтесь на раздаче! Для того, чтобы скачать сам торрент-файл (который видит больше источников), а также для того, чтобы поблагодарить релизера, вам необходимо зарегистрироваться. Если регистрироваться лень - вы можете также попробовать скачать релиз по нашим партнерским ссылкам ниже. Кроме того, зарегистрированным пользователям не показывается всплывающая реклама при скачивании.

[underver.se].t233602.torrent
Трекер: Зарегистрирован   [ 25.01.2022 10:09 ]  
Статус: проверено (by 90ytr90 at 25.01.2022 10:10)
Поблагодарили: пока никто не поблагодарил...
Тип торрента: публичный - доступные источники с открытых трекеров: 
Размер: 33.83 GB (занимает 7.73 DVDR, для записи нужно 8 болванок DVDR/RW)
 
 

Яндекс.Метрика powered by Sphinx


В Н И М А Н И Е
Сайт не распространяет и не хранит электронные версии произведений, а лишь бесплатно и без коммерческой выгоды (не требуя взамен платы,
SMS и т.д.) предоставляет доступ к создаваемому пользователями каталогу ссылок на торрент-файлы, которые содержат только списки хеш-сумм.
Убедительная просьба с жалобами обращаться напрямую к пользователю, разместившему торрент файл.

Вверх