Loading...
Error

Король вечеринок / National Lampoon's Van Wilder (Уолт Бекер) [2002 г., Мелодрама, комедия, BDRip 1080p] MVO + DVO + AVO + Sub (Rus)

Статистика раздачи
Размер:  9.67 GB   |    Зарегистрирован:  3 месяца 23 дня   |    Скачан:  2 раза

Полного источника не было: 2 дня 8 часов

Сидов:  0  |  0 KB/s  ]   Личеров:  0  |  0 KB/s  ]

* - сиды/пиры с внешних источников

   
 
Автор Сообщение

Renesans Пол:Муж

24-Янв-2022 21:52

Король вечеринок / National Lampoon's Van Wilder


Год выпуска: 2002
Жанр: Мелодрама, комедия
Режиссер: Уолт Бекер
Актеры: Райан Рейнольдс, Тара Рейд, Тим Мэтисон, Кэл Пенн, Тек Холмс, Дэниэл Косгров, Дион Ричмонд, Алекс Барнс, Эмили Рутерферд, Пол Глисон, Эрик Эстрада, Кёртис Армстронг

Описание:
Вэн Уайлдер учится в колледже уже шесть лет, и все никак не может получить диплом. Но вовсе не из-за того, что он самый тупой ученик в группе, а потому что без ума влюблен в беззаботную студенческую жизнь. К своему ужасу он узнает, что отец не намерен оплачивать затянувшуюся учебу своего отпрыска, и теперь у него всего два варианта: либо самостоятельно заплатить за седьмой год веселья, либо... стать, в конце концов, выпускником!

Страна: Германия, США
Студия: In-Motion AG Movie & TV Productions, Myriad Pictures Inc., National Lampoon ProductionsTapestry Films
Продолжительность: 01:33:52
Перевод: Профессиональный многоголосый, профессиональный двухголосый, авторский одноголосый

Качество: BDRip 1080p
Видео: 12500 Кбит/с, 1920х1040, 23.976 Кадр/с
Аудио:
Aудио#1: Russian: 48 kHz, AC3, 3/2 (L,C,R,l,r) + LFE ch, ~384.00 kbps avg |Профессиональный многоголосый, Киномания|
Aудио#2: Russian: 48 kHz, AC3, 3/2 (L,C,R,l,r) + LFE ch, ~448.00 kbps avg |Профессиональный двухголосый, Пирамида|
Aудио#3: Russian: 48 kHz, AC3, 3/2 (L,C,R,l,r) + LFE ch, ~384.00 kbps avg |Авторский одноголосый, Е. Рудой|
Aудио#4: Russian: 48 kHz, AC3, 2 (L,R) ch, ~192.00 kbps avg |Профессиональный многоголосый, СТС, SATRip|
Aудио#5: Russian: 48 kHz, AC3, 2 (L,R) ch, ~192.00 kbps avg |Профессиональный многоголосый, Россия, VHSRip|
Aудио#6: English: 48 kHz, AC3, 3/2 (L,C,R,l,r) + LFE ch, ~640.00 kbps avg
Субтитры: Russian (Full-length), English (Full-length)
--preset veryslow --slow-firstpass --pass 2

x264 [info]: frame I:1321 Avg QP:14.74 size:194791
x264 [info]: frame P:27733 Avg QP:17.34 size:106578
x264 [info]: frame B:105995 Avg QP:18.45 size: 52713

Формат : Matroska
Версия формата : Version 4
Размер файла : 9,67 Гбайт
Продолжительность : 1 ч. 33 м.
Общий поток : 14,7 Мбит/сек
Название фильма : National.Lampoon's.Van.Wilder.2002.x264.Unrated.BDRip.1080p.Rus.Eng.ExKinoRay
Дата кодирования : UTC 2022-01-21 22:04:21
Программа кодирования : mkvmerge v7.9.0 ('Birds') 64bit
Библиотека кодирования : libebml v1.3.1 + libmatroska v1.4.2

Видео
Идентификатор : 1
Формат : AVC
Формат/Информация : Advanced Video Codec
Профиль формата : [email protected]
Настройки формата : CABAC / 4 Ref Frames
Параметр CABAC формата : Да
Параметр RefFrames формата : 4 кадра
Идентификатор кодека : V_MPEG4/ISO/AVC
Продолжительность : 1 ч. 33 м.
Битрейт : 12,5 Мбит/сек
Ширина : 1 920 пикселей
Высота : 1 040 пикселей
Соотношение сторон : 1,85:1
Режим частоты кадров : Постоянный
Частота кадров : 23,976 (24000/1001) кадра/сек
Цветовое пространство : YUV
Субдискретизация насыщенности : 4:2:0
Битовая глубина : 8 бит
Тип развёртки : Прогрессивная
Бит/(Пиксели*Кадры) : 0.261
Размер потока : 8,20 Гбайт (85%)
Заголовок : National.Lampoon's.Van.Wilder.2002.x264.Unrated.BDRip.1080p.Rus.Eng.ExKinoRay
Библиотека кодирования : x264 core 164 r3081 19856cc
Настройки программы : cabac=1 / ref=4 / deblock=1:-3:-3 / analyse=0x3:0x133 / me=umh / subme=11 / psy=1 / psy_rd=1.20:0.00 / mixed_ref=1 / me_range=64 / chroma_me=1 / trellis=2 / 8x8dct=1 / cqm=0 / deadzone=21,11 / fast_pskip=0 / chroma_qp_offset=-2 / threads=18 / lookahead_threads=3 / sliced_threads=0 / nr=0 / decimate=0 / interlaced=0 / bluray_compat=0 / constrained_intra=0 / bframes=8 / b_pyramid=2 / b_adapt=2 / b_bias=0 / direct=3 / weightb=1 / open_gop=0 / weightp=2 / keyint=240 / keyint_min=23 / scenecut=40 / intra_refresh=0 / rc_lookahead=100 / rc=2pass / mbtree=0 / bitrate=12500 / ratetol=1.0 / qcomp=0.60 / qpmin=0 / qpmax=69 / qpstep=4 / cplxblur=20.0 / qblur=0.5 / vbv_maxrate=62500 / vbv_bufsize=78125 / nal_hrd=none / filler=0 / ip_ratio=1.30 / pb_ratio=1.20 / aq=3:0.80 / zones=128867,129059,b=0.25/129061,131400,b=0.75/131420,135048,b=0.25
Default : Да
Forced : Нет

Аудио #1
Идентификатор : 2
Формат : AC-3
Формат/Информация : Audio Coding 3
Коммерческое название : Dolby Digital
Идентификатор кодека : A_AC3
Продолжительность : 1 ч. 33 м.
Вид битрейта : Постоянный
Битрейт : 384 Кбит/сек
Каналы : 6 каналов
Channel layout : L R C LFE Ls Rs
Частота : 48,0 КГц
Частота кадров : 31,250 кадров/сек (1536 SPF)
Метод сжатия : С потерями
Размер потока : 258 Мбайт (3%)
Заголовок : Профессиональный многоголосый (Киномания)
Язык : Russian
Service kind : Complete Main
Default : Нет
Forced : Нет

Аудио #2
Идентификатор : 3
Формат : AC-3
Формат/Информация : Audio Coding 3
Коммерческое название : Dolby Digital
Идентификатор кодека : A_AC3
Продолжительность : 1 ч. 33 м.
Вид битрейта : Постоянный
Битрейт : 448 Кбит/сек
Каналы : 6 каналов
Channel layout : L R C LFE Ls Rs
Частота : 48,0 КГц
Частота кадров : 31,250 кадров/сек (1536 SPF)
Метод сжатия : С потерями
Размер потока : 301 Мбайт (3%)
Заголовок : Профессиональный двухголосый (Пирамида)
Язык : Russian
Service kind : Complete Main
Default : Нет
Forced : Нет

Аудио #3
Идентификатор : 4
Формат : AC-3
Формат/Информация : Audio Coding 3
Коммерческое название : Dolby Digital
Идентификатор кодека : A_AC3
Продолжительность : 1 ч. 33 м.
Вид битрейта : Постоянный
Битрейт : 384 Кбит/сек
Каналы : 6 каналов
Channel layout : L R C LFE Ls Rs
Частота : 48,0 КГц
Частота кадров : 31,250 кадров/сек (1536 SPF)
Метод сжатия : С потерями
Размер потока : 258 Мбайт (3%)
Заголовок : Авторский одноголосый (Рудой)
Язык : Russian
Service kind : Complete Main
Default : Нет
Forced : Нет

Аудио #4
Идентификатор : 5
Формат : AC-3
Формат/Информация : Audio Coding 3
Коммерческое название : Dolby Digital
Идентификатор кодека : A_AC3
Продолжительность : 1 ч. 33 м.
Вид битрейта : Постоянный
Битрейт : 192 Кбит/сек
Каналы : 2 канала
Channel layout : L R
Частота : 48,0 КГц
Частота кадров : 31,250 кадров/сек (1536 SPF)
Метод сжатия : С потерями
Размер потока : 129 Мбайт (1%)
Заголовок : Профессиональный многоголосый (СТС, SATRip)
Язык : Russian
Service kind : Complete Main
Default : Нет
Forced : Нет

Аудио #5
Идентификатор : 6
Формат : AC-3
Формат/Информация : Audio Coding 3
Коммерческое название : Dolby Digital
Идентификатор кодека : A_AC3
Продолжительность : 1 ч. 33 м.
Вид битрейта : Постоянный
Битрейт : 192 Кбит/сек
Каналы : 2 канала
Channel layout : L R
Частота : 48,0 КГц
Частота кадров : 31,250 кадров/сек (1536 SPF)
Метод сжатия : С потерями
Размер потока : 129 Мбайт (1%)
Заголовок : Профессиональный многоголосый (Россия, VHSRip)
Язык : Russian
Service kind : Complete Main
Default : Нет
Forced : Нет

Аудио #6
Идентификатор : 7
Формат : AC-3
Формат/Информация : Audio Coding 3
Коммерческое название : Dolby Digital
Идентификатор кодека : A_AC3
Продолжительность : 1 ч. 33 м.
Вид битрейта : Постоянный
Битрейт : 640 Кбит/сек
Каналы : 6 каналов
Channel layout : L R C LFE Ls Rs
Частота : 48,0 КГц
Частота кадров : 31,250 кадров/сек (1536 SPF)
Метод сжатия : С потерями
Размер потока : 430 Мбайт (4%)
Заголовок : DD 5.1 ch 640 Kbps
Язык : English
Service kind : Complete Main
Default : Нет
Forced : Нет

Текст #1
Идентификатор : 8
Формат : UTF-8
Идентификатор кодека : S_TEXT/UTF8
Идентификатор кодека/Информация : UTF-8 Plain Text
Продолжительность : 1 ч. 30 м.
Битрейт : 135 бит/сек
Count of elements : 1174
Размер потока : 89,8 Кбайт (0%)
Заголовок : Full-length
Язык : Russian
Default : Нет
Forced : Нет

Текст #2
Идентификатор : 9
Формат : UTF-8
Идентификатор кодека : S_TEXT/UTF8
Идентификатор кодека/Информация : UTF-8 Plain Text
Продолжительность : 1 ч. 30 м.
Битрейт : 73 бит/сек
Count of elements : 1277
Размер потока : 48,5 Кбайт (0%)
Заголовок : Full-length
Язык : English
Default : Нет
Forced : Нет

Меню
00:00:00.000 : en:00:00:00.000
00:06:35.395 : en:00:06:35.395
00:09:31.029 : en:00:09:31.029
00:15:42.358 : en:00:15:42.358
00:18:56.969 : en:00:18:56.969
00:24:56.161 : en:00:24:56.161
00:29:00.739 : en:00:29:00.739
00:34:35.824 : en:00:34:35.824
00:41:14.138 : en:00:41:14.138
00:45:24.096 : en:00:45:24.096
00:49:04.900 : en:00:49:04.900
00:53:26.286 : en:00:53:26.286
01:03:08.368 : en:01:03:08.368
01:08:04.831 : en:01:08:04.831
01:12:39.438 : en:01:12:39.438
01:21:42.106 : en:01:21:42.106
pic pic pic pic
[align=center]Source Encode FREEISLAND
pic pic pic pic pic pic pic pic pic
Fixed OCR subs.
Used zones.
Релиз от:

Этот торрент недоступен для скачивания без регистрации, однако доступен по публичной magnet-ссылке (источники с публичных трекеров). Перед использованием ссылки прочтите, пожалуйста Пользовательское соглашение, а также как можно дольше оставайтесь на раздаче! Для того, чтобы скачать сам торрент-файл (который видит больше источников), а также для того, чтобы поблагодарить релизера, вам необходимо зарегистрироваться. Если регистрироваться лень - вы можете также попробовать скачать релиз по нашим партнерским ссылкам ниже. Кроме того, зарегистрированным пользователям не показывается всплывающая реклама при скачивании.

[underver.se].t233592.torrent
Трекер: Зарегистрирован   [ 24.01.2022 21:52 ]  
Статус: проверено (by Robbertta at 25.01.2022 05:23)
Поблагодарили: пока никто не поблагодарил...
Тип торрента: публичный - доступные источники с открытых трекеров: 
Размер: 9.67 GB (занимает 2.21 DVDR, для записи нужно 3 болванки DVDR/RW)
 
 

Яндекс.Метрика powered by Sphinx


В Н И М А Н И Е
Сайт не распространяет и не хранит электронные версии произведений, а лишь бесплатно и без коммерческой выгоды (не требуя взамен платы,
SMS и т.д.) предоставляет доступ к создаваемому пользователями каталогу ссылок на торрент-файлы, которые содержат только списки хеш-сумм.
Убедительная просьба с жалобами обращаться напрямую к пользователю, разместившему торрент файл.

Вверх