Loading...
Error

Снегурочка против всех (Полина Ануфриева) [2021 г., комедия, WEB-DL 1080p] Original (ОККО)

Статистика раздачи
Размер:  2.71 GB   |    Зарегистрирован:  3 месяца 23 дня   |    Скачан:  85 раз
Сидов:  1  |  0 KB/s  ]   Личеров:  0  |  0 KB/s  ]

* - сиды/пиры с внешних источников

   
 
Автор Сообщение

90ytr90 

24-Янв-2022 20:48

Снегурочка против всех



Страна: Россия
Год выпуска: 2021
Жанр: комедия
Продолжительность: 01:14:47
Озвучивание: оригинальная звуковая дорожка [ОККО]
Режиссёр: Полина Ануфриева

В ролях:
    Павел Воля, Надежда Сысоева, Виталий Хаев, Настасья Самбурская, Оскар Кучера, Мария Пирогова, Павел Ворожцов, Александра Булычёва, Анна Исайкина, Юрий Грубник


Сюжет фильма:
    Главные качества 45-летнего бизнесмена Евгения Васина — гениальный ум, благодаря которому он разбогател, и отвратительный характер, превращающий жизнь родных и подчиненных бизнесмена в самый настоящий ад. В новогоднюю ночь Васин сбивает на автомобиле Деда Мороза и вместо того, чтобы оказать помощь, крадет елку и уезжает. Наказание неминуемо. Дед Мороз переселяет душу Евгения в тело своей Снегурочки. Теперь в образе дедушкиной помощницы Васину придется разносить подарки всем тем, кого он обидел, унизил или оскорбил, посмотреть на себя со стороны и проверить, похожа ли его жизнь и жизнь его семьи на сказку, которую Евгений себе рисовал.

  • Дата российской премьеры: 30 декабря 2021, «Каропрокат»
  • Цифровой релиз: : 24 января 2022 года (ОККО)
         
Качество видео: WEB-DL 1080p
Формат: MKV
Видео: AVC, 1920x800 (2.40:1), 5000 kbps, 24 fps, 0.136 bit/pixel
Аудио: AC3, 192 kbps, 2 ch, 48 kHz, Original [ОККО]

Rip by ELEKTRI4KA
Complete name                           :  Snegurochka.protiv.vseh.2021.WEB-DL.1080p.ELEKTRI4KA.UNIONGANG.mkv 
Format : Matroska
Format version : Version 4
File size : 2.71 GiB
Duration : 1 h 14 min
Overall bit rate : 5 183 kb/s
Movie name : Snegurochka.protiv.vseh.2021.WEB-DL.1080p.ELEKTRI4KA.UNIONGANG.в?є
Encoded date : UTC 2022-01-24 13:16:53
Writing application : mkvmerge v63.0.0 ('Everything') 32-bit
Writing library : libebml v1.4.2 + libmatroska v1.6.4

Video
ID : 1
Format : AVC
Format/Info : Advanced Video Codec
Format profile : [email protected]
Format settings : CABAC / 3 Ref Frames
Format settings, CABAC : Yes
Format settings, Reference frames : 3 frames
Codec ID : V_MPEG4/ISO/AVC
Duration : 1 h 14 min
Bit rate : 5 000 kb/s
Width : 1 920 pixels
Height : 800 pixels
Display aspect ratio : 2.40:1
Frame rate mode : Constant
Frame rate : 24.000 FPS
Color space : YUV
Chroma subsampling : 4:2:0
Bit depth : 8 bits
Scan type : Progressive
Bits/(Pixel*Frame) : 0.136
Stream size : 2.61 GiB (96%)
Writing library : x264 core 161 r3048 b86ae3c
Encoding settings : cabac=1 / ref=4 / deblock=1:1:1 / analyse=0x3:0x133 / me=umh / subme=9 / psy=1 / psy_rd=0.40:1.00 / mixed_ref=1 / me_range=24 / chroma_me=1 / trellis=0 / 8x8dct=1 / cqm=0 / deadzone=21,11 / fast_pskip=1 / chroma_qp_offset=-2 / threads=25 / lookahead_threads=2 / sliced_threads=0 / nr=0 / decimate=1 / interlaced=0 / bluray_compat=0 / constrained_intra=0 / bframes=8 / b_pyramid=1 / b_adapt=1 / b_bias=0 / direct=3 / weightb=1 / open_gop=0 / weightp=2 / keyint=72 / keyint_min=37 / scenecut=0 / intra_refresh=0 / rc_lookahead=30 / rc=2pass / mbtree=1 / bitrate=5000 / ratetol=1.0 / qcomp=0.80 / qpmin=1 / qpmax=69 / qpstep=4 / cplxblur=20.0 / qblur=0.5 / vbv_maxrate=7500 / vbv_bufsize=10000 / nal_hrd=none / filler=0 / ip_ratio=1.40 / aq=1:1.00
Default : Yes
Forced : No
Color range : Limited
Color primaries : BT.709
Transfer characteristics : BT.709
Matrix coefficients : BT.709

Audio
ID : 2
Format : AC-3
Format/Info : Audio Coding 3
Commercial name : Dolby Digital
Codec ID : A_AC3
Duration : 1 h 14 min
Bit rate mode : Constant
Bit rate : 192 kb/s
Channel(s) : 2 channels
Channel layout : L R
Sampling rate : 48.0 kHz
Frame rate : 31.250 FPS (1536 SPF)
Compression mode : Lossy
Stream size : 103 MiB (4%)
Title : Original (OKKO)
Language : Russian
Service kind : Complete Main
Default : Yes
Forced : Yes


pic pic pic pic

Этот торрент недоступен для скачивания без регистрации, однако доступен по публичной magnet-ссылке (источники с публичных трекеров). Перед использованием ссылки прочтите, пожалуйста Пользовательское соглашение, а также как можно дольше оставайтесь на раздаче! Для того, чтобы скачать сам торрент-файл (который видит больше источников), а также для того, чтобы поблагодарить релизера, вам необходимо зарегистрироваться. Если регистрироваться лень - вы можете также попробовать скачать релиз по нашим партнерским ссылкам ниже. Кроме того, зарегистрированным пользователям не показывается всплывающая реклама при скачивании.

[underver.se].t233589.torrent
Трекер: Зарегистрирован   [ 24.01.2022 20:48 ]  
Статус: проверено (by 90ytr90 at 24.01.2022 20:52)
Поблагодарили: 2 человека
Тип торрента: публичный - доступные источники с открытых трекеров: 
Размер: 2.71 GB (занимает 0.62 DVDR, для записи нужно 1 болванка DVDR/RW)
 
 

Яндекс.Метрика powered by Sphinx


В Н И М А Н И Е
Сайт не распространяет и не хранит электронные версии произведений, а лишь бесплатно и без коммерческой выгоды (не требуя взамен платы,
SMS и т.д.) предоставляет доступ к создаваемому пользователями каталогу ссылок на торрент-файлы, которые содержат только списки хеш-сумм.
Убедительная просьба с жалобами обращаться напрямую к пользователю, разместившему торрент файл.

Вверх