Loading...
Error

Игры шпионов / The Courier (Доминик Кук) [2020, Триллер, BDRemux 1080p] Dub (iTunes) + MVO (HDrezka Studio) + Original + Sub (Rus/Eng)

Статистика раздачи
Размер:  30,41 GB   |    Зарегистрирован:  8 дней   |    Скачан:  9 раз

Полного источника не было: 4 часа

Сидов:  0  |  0 KB/s  ]   Личеров:  9  |  0 KB/s  ]

* - сиды/пиры с внешних источников

   
 
Автор Сообщение

Konin Пол:Муж

10-Июн-2021 22:06

Игры шпионов / The Courier

Год выхода: 2020
Страна: Великобритания, США
Студия: 42, FilmNation Entertainment, SunnyMarch
Жанр: Триллер
Продолжительность: 01:52:00
Перевод #1: Профессиональный (полное дублирование) | iTunes
Перевод #2: Профессиональный (многоголосый, закадровый) | HDrezka Studio
Режиссер:
Доминик Кук
В ролях:
Бенедикт Камбербэтч, Мераб Нинидзе, Рэйчел Броснахэн, Джесси Бакли, Владимир Чуприков, Джеймс Шофилд, Фред Хэйг, Эмма Пензина, Мария Миронова, Энтон Лессер
О фильме:
Во время Холодной войны Олег Пеньковский, полковник ГРУ генштаба Минобороны, выходит на связь с Гревиллом Винном, британским бизнесменом и шпионом, заинтересованном в постоянном контакте с Москвой. Разведчики договариваются о сотрудничестве, не представляя, чем оно закончится для каждого.

Качество: BDRemux 1080p
Формат: MKV
Видео: MPEG-4 AVC, 1920x1080, 34.5 Mbit/s, 23.976 fps
Аудио #01: 48 kHz, AC3, 5.1, 384 Kbps | Дублированный | iTunes | RUS |
Аудио #02: 48 kHz, AC3, 5.1, 448 Kbps | Профессиональный многоголосый | HDRezka Studio | RUS |
Аудио #03: 48 kHz, DTS-HD MA, 5.1, 3489 Kbps | Оригинал | ENG |
Субтитры: Русские (Forced, full), английские
General
Unique ID : 11275326803530037911358960718828052558 (0x87B8C88246F8C5C6FCDAC879A0CA04E)
Complete name : F:VideoThe.Courier.2020.D.MVO.BDREMUX.1080p.seleZem.mkv
Format : Matroska
Format version : Version 4
File size : 30.4 GiB
Duration : 1 h 52 min
Overall bit rate mode : Variable
Overall bit rate : 38.9 Mb/s
Movie name : The Courier 2020 from seleZen
Encoded date : UTC 2021-06-10 13:41:25
Writing application : mkvmerge v55.0.0 ('Waiting For Space') 64-bit
Writing library : libebml v1.4.2 + libmatroska v1.6.4
Video
ID : 1
Format : AVC
Format/Info : Advanced Video Codec
Format profile : High@L4.1
Format settings : CABAC / 4 Ref Frames
Format settings, CABAC : Yes
Format settings, Reference : 4 frames
Codec ID : V_MPEG4/ISO/AVC
Duration : 1 h 52 min
Bit rate mode : Variable
Bit rate : 34.5 Mb/s
Maximum bit rate : 37.0 Mb/s
Width : 1 920 pixels
Height : 1 080 pixels
Display aspect ratio : 16:9
Frame rate mode : Constant
Frame rate : 23.976 (24000/1001) FPS
Color space : YUV
Chroma subsampling : 4:2:0
Bit depth : 8 bits
Scan type : Progressive
Bits/(Pixel*Frame) : 0.695
Stream size : 27.0 GiB (89%)
Language : English
Default : Yes
Forced : No
Audio #1
ID : 2
Format : AC-3
Format/Info : Audio Coding 3
Commercial name : Dolby Digital
Codec ID : A_AC3
Duration : 1 h 52 min
Bit rate mode : Constant
Bit rate : 384 kb/s
Channel(s) : 6 channels
Channel layout : L R C LFE Ls Rs
Sampling rate : 48.0 kHz
Frame rate : 31.250 FPS (1536 SPF)
Compression mode : Lossy
Stream size : 308 MiB (1%)
Title : Dub [iTunes]
Language : Russian
Service kind : Complete Main
Default : Yes
Forced : Yes
Audio #2
ID : 3
Format : AC-3
Format/Info : Audio Coding 3
Commercial name : Dolby Digital
Codec ID : A_AC3
Duration : 1 h 52 min
Bit rate mode : Constant
Bit rate : 448 kb/s
Channel(s) : 6 channels
Channel layout : L R C LFE Ls Rs
Sampling rate : 48.0 kHz
Frame rate : 31.250 FPS (1536 SPF)
Compression mode : Lossy
Stream size : 359 MiB (1%)
Title : MVO [HDRezka Studio]
Language : Russian
Service kind : Complete Main
Default : No
Forced : No
Audio #3
ID : 4
Format : DTS XLL
Format/Info : Digital Theater Systems
Commercial name : DTS-HD Master Audio
Codec ID : A_DTS
Duration : 1 h 52 min
Bit rate mode : Variable
Bit rate : 3 489 kb/s
Channel(s) : 6 channels
Channel layout : C L R Ls Rs LFE
Sampling rate : 48.0 kHz
Frame rate : 93.750 FPS (512 SPF)
Bit depth : 24 bits
Compression mode : Lossless
Stream size : 2.73 GiB (9%)
Title : Original
Language : English
Default : No
Forced : No
Text #1
ID : 5
Format : UTF-8
Codec ID : S_TEXT/UTF8
Codec ID/Info : UTF-8 Plain Text
Duration : 1 h 43 min
Bit rate : 2 b/s
Count of elements : 25
Stream size : 2.06 KiB (0%)
Title : Forced [HDRezka Studio]
Language : Russian
Default : No
Forced : No
Text #2
ID : 6
Format : UTF-8
Codec ID : S_TEXT/UTF8
Codec ID/Info : UTF-8 Plain Text
Duration : 1 h 44 min
Bit rate : 93 b/s
Count of elements : 1293
Stream size : 71.1 KiB (0%)
Title : Full [FOCS]
Language : Russian
Default : No
Forced : No
Text #3
ID : 7
Format : UTF-8
Codec ID : S_TEXT/UTF8
Codec ID/Info : UTF-8 Plain Text
Duration : 1 h 41 min
Bit rate : 48 b/s
Count of elements : 959
Stream size : 36.4 KiB (0%)
Title : Full
Language : English
Default : No
Forced : No
Text #4
ID : 8
Format : UTF-8
Codec ID : S_TEXT/UTF8
Codec ID/Info : UTF-8 Plain Text
Duration : 1 h 43 min
Bit rate : 54 b/s
Count of elements : 1153
Stream size : 41.2 KiB (0%)
Title : SDH
Language : English
Default : No
Forced : No
Menu
00:00:00.000 : Chapter 01
00:05:01.134 : Chapter 02
00:14:26.115 : Chapter 03
00:22:49.076 : Chapter 04
00:28:33.002 : Chapter 05
00:34:35.031 : Chapter 06
00:40:07.404 : Chapter 07
00:45:46.368 : Chapter 08
00:51:15.572 : Chapter 09
00:57:35.285 : Chapter 10
01:05:10.614 : Chapter 11
01:12:18.584 : Chapter 12
01:19:23.717 : Chapter 13
01:27:02.967 : Chapter 14
01:32:00.097 : Chapter 15
01:41:21.909 : Chapter 16
Релиз:

Этот торрент недоступен для скачивания без регистрации, однако доступен по публичной magnet-ссылке (источники с публичных трекеров). Перед использованием ссылки прочтите, пожалуйста Пользовательское соглашение, а также как можно дольше оставайтесь на раздаче! Для того, чтобы скачать сам торрент-файл (который видит больше источников), а также для того, чтобы поблагодарить релизера, вам необходимо зарегистрироваться. Если регистрироваться лень - вы можете также попробовать скачать релиз по нашим партнерским ссылкам ниже. Кроме того, зарегистрированным пользователям не показывается всплывающая реклама при скачивании.

[underver.se].t210194.torrent
Трекер: Зарегистрирован   [ 10.06.2021 22:06 ]  

Статус: проверено (by makkol at 12.06.2021 11:11)
Поблагодарили: 1 человек
Тип торрента: публичный - доступные источники с открытых трекеров: 
Размер: 30,41 GB (занимает 6,95 DVDR, для записи нужно 7 болванок DVDR/RW)
 
 
Похожие темы
Форум Тема Автор Торрент Отв. Посл. сооб.
Зарубежное кино [DVDRip, Low-Res HDRip, и т.д.] Игры шпионов / The Courier (Доминик Кук) [2020 г., триллер, WEB-DLRip] DVO (Pazl Voice) makkol
118 | 1

0 | 451

44

17.04.2021 21:47

Зарубежное кино [DVDRip, Low-Res HDRip, и т.д.] Игры шпионов / The Courier (Доминик Кук) [2020 г., триллер, WEB-DLRip] MVO (HDrezka Studio) makkol
121 | 2

0 | 358

21

25.04.2021 10:40

Зарубежное кино [DVDRip, Low-Res HDRip, и т.д.] Игры шпионов / The Courier (Доминик Кук) [2020, Триллер, BDRip] MVO (HDRezka Studio) + Sub (Rus/Eng) Konin
87 | 0

0 | 129

8

30.05.2021 08:38

Зарубежное кино [DVDRip, Low-Res HDRip, и т.д.] Игры шпионов / The Courier (Доминик Кук) [2020, Триллер, BDRip] 2xMVO (HDRezka Studio - Rus/Ukr) + Sub (Rus/Eng) Konin
59 | 1

0 | 167

8

30.05.2021 08:39

Зарубежное кино [DVDRip, Low-Res HDRip, и т.д.] Игры шпионов / The Courier (Доминик Кук) [2020, Триллер, BDRip] Dub (iTunes) + Sub (Rus/Eng) Konin
188 | 7

0 | 149

17

10.06.2021 22:04

Зарубежное кино [DVDRip, Low-Res HDRip, и т.д.] Игры шпионов / The Courier (Доминик Кук) [2020, Триллер, BDRip] Dub (iTunes) + MVO (HDrezka Studio) + Sub (Rus/Eng) Konin
51 | 3

0 | 131

7

10.06.2021 22:04

Зарубежное кино [DVD / HDDVD / BD / Remux] Игры шпионов / The Courier (Доминик Кук) [2020, Триллер, BDRemux 1080p] 2xMVO (HDRezka Studio - Rus/Ukr) + Sub (Rus/Eng) Konin
27 | 3

0 | 260

4

31.05.2021 17:41

Зарубежное кино [HDDVDRip / BDRip / WEB-DL / HDTV 1080/720р] Игры шпионов / The Courier (Доминик Кук) [2020 г., триллер, WEB-DL 1080p] DVO (Pazl Voice) + Original makkol
133 | 4

0 | 707

57

17.04.2021 21:54

Зарубежное кино [HDDVDRip / BDRip / WEB-DL / HDTV 1080/720р] Игры шпионов / The Courier (Доминик Кук) [2020 г., триллер, WEB-DL 720p] MVO (HDrezka Studio) + Original makkol
121 | 1

0 | 334

16

25.04.2021 10:53

Зарубежное кино [HDDVDRip / BDRip / WEB-DL / HDTV 1080/720р] Игры шпионов / The Courier (Доминик Кук) [2020 г., триллер, WEB-DL 1080p] MVO (HDrezka Studio) + Original makkol
296 | 5

0 | 470

30

25.04.2021 10:58


Яндекс.Метрика powered by Sphinx


В Н И М А Н И Е
Сайт не распространяет и не хранит электронные версии произведений, а лишь бесплатно и без коммерческой выгоды (не требуя взамен платы,
SMS и т.д.) предоставляет доступ к создаваемому пользователями каталогу ссылок на торрент-файлы, которые содержат только списки хеш-сумм.
Убедительная просьба с жалобами обращаться напрямую к пользователю, разместившему торрент файл.

Вверх