Loading...
Error

Сопротивление / Resistance (Хонатан Якубович) [2020, Драма, военный, биография, история, BDRemux 1080p] Dub (iTunes) + Original + Sub (Eng)

Статистика раздачи
Размер:  31,21 GB   |    Зарегистрирован:  12 дней   |    Скачан:  3 раза

Полного источника не было: 23 часа

Сидов:  0  |  0 KB/s  ]   Личеров:  0  |  0 KB/s  ]

* - сиды/пиры с внешних источников

   
 
Автор Сообщение

Konin Пол:Муж

10-Июн-2021 21:52

Сопротивление / Resistance
«Поставить на кон свою жизнь ради спасения детей»
Год выхода: 2020
Страна: Великобритания, Франция, Германия, США
Студия: Bliss Media, Epicentral Studios, Ingenious Media, Pantaleon Films, Riverstone Pictures, Rocket Science, Vertical Media
Жанр: Драма, военный, биография, история
Продолжительность: 02:01:20
Перевод: Профессиональный (полное дублирование) | iTunes
Режиссер:
Хонатан Якубович
В ролях:
Джесси Айзенберг, Клеманс Поэзи, Феликс Моати, Вица Керекеш, Маттиас Швайгхёфер, Геза Рёриг, Эд Харрис, Белла Рэмси, Марта Иссова, Карл Маркович
Описание:
После оккупации Франции нацистами начинающий мим Марсель Марсо, пытаясь добиться расположения красавицы Эммы, вступает в ряды Сопротивления. Там он берется провернуть опасную операцию: спасти группу еврейских сирот из рук нацистов, переправив их через горы и леса Швейцарии.

Качество: BDRemux 1080p
Формат: MKV
Видео: MPEG-4 AVC, 1920x1080, 33.8 Mbit/s, 23.976 fps
Аудио #01: 48 kHz, AC3, 5.1, 384 Kbps | iTunes | RUS |
Аудио #02: 48 kHz, DTS-HD MA, 5.1, 2612 Kbps | Оригинал | ENG |
Субтитры: Английские
General
Unique ID : 238681438879210579640640743704270431438 (0xB3905F7EF07771492515B1FC3CFB64CE)
Complete name : F:VideoResistance.2020.BDREMUX.1080p.seleZen.mkv
Format : Matroska
Format version : Version 4
File size : 31.2 GiB
Duration : 2 h 1 min
Overall bit rate mode : Variable
Overall bit rate : 36.8 Mb/s
Movie name : Resistance 2020 from seleZen
Encoded date : UTC 2021-06-10 12:11:58
Writing application : mkvmerge v55.0.0 ('Waiting For Space') 64-bit
Writing library : libebml v1.4.2 + libmatroska v1.6.4
Video
ID : 1
Format : AVC
Format/Info : Advanced Video Codec
Format profile : High@L4.1
Format settings : CABAC / 4 Ref Frames
Format settings, CABAC : Yes
Format settings, Reference : 4 frames
Codec ID : V_MPEG4/ISO/AVC
Duration : 2 h 1 min
Bit rate mode : Constant
Bit rate : 33.8 Mb/s
Nominal bit rate : 36.0 Mb/s
Width : 1 920 pixels
Height : 1 080 pixels
Display aspect ratio : 16:9
Frame rate mode : Constant
Frame rate : 23.976 (24000/1001) FPS
Color space : YUV
Chroma subsampling : 4:2:0
Bit depth : 8 bits
Scan type : Progressive
Bits/(Pixel*Frame) : 0.680
Stream size : 28.7 GiB (92%)
Language : English
Default : Yes
Forced : No
Audio #1
ID : 2
Format : AC-3
Format/Info : Audio Coding 3
Commercial name : Dolby Digital
Codec ID : A_AC3
Duration : 2 h 1 min
Bit rate mode : Constant
Bit rate : 384 kb/s
Channel(s) : 6 channels
Channel layout : L R C LFE Ls Rs
Sampling rate : 48.0 kHz
Frame rate : 31.250 FPS (1536 SPF)
Compression mode : Lossy
Stream size : 333 MiB (1%)
Title : iTunes
Language : Russian
Service kind : Complete Main
Default : Yes
Forced : Yes
Audio #2
ID : 3
Format : DTS XLL
Format/Info : Digital Theater Systems
Commercial name : DTS-HD Master Audio
Codec ID : A_DTS
Duration : 2 h 1 min
Bit rate mode : Variable
Bit rate : 2 612 kb/s
Channel(s) : 6 channels
Channel layout : C L R Ls Rs LFE
Sampling rate : 48.0 kHz
Frame rate : 93.750 FPS (512 SPF)
Bit depth : 24 bits
Compression mode : Lossless
Stream size : 2.21 GiB (7%)
Title : Original
Language : English
Default : No
Forced : No
Text
ID : 4
Format : UTF-8
Codec ID : S_TEXT/UTF8
Codec ID/Info : UTF-8 Plain Text
Duration : 1 h 51 min
Bit rate : 32 b/s
Count of elements : 996
Stream size : 26.8 KiB (0%)
Title : Full
Language : English
Default : No
Forced : No
Menu
00:00:00.000 : en:Chapter 01
00:10:10.193 : en:Chapter 02
00:22:19.964 : en:Chapter 03
00:32:50.302 : en:Chapter 04
00:40:27.175 : en:Chapter 05
00:51:29.920 : en:Chapter 06
01:00:17.239 : en:Chapter 07
01:12:19.669 : en:Chapter 08
01:21:58.038 : en:Chapter 09
01:33:52.377 : en:Chapter 10
01:46:57.119 : en:Chapter 11
01:55:20.330 : en:Chapter 12
Релиз:

Этот торрент недоступен для скачивания без регистрации, однако доступен по публичной magnet-ссылке (источники с публичных трекеров). Перед использованием ссылки прочтите, пожалуйста Пользовательское соглашение, а также как можно дольше оставайтесь на раздаче! Для того, чтобы скачать сам торрент-файл (который видит больше источников), а также для того, чтобы поблагодарить релизера, вам необходимо зарегистрироваться. Если регистрироваться лень - вы можете также попробовать скачать релиз по нашим партнерским ссылкам ниже. Кроме того, зарегистрированным пользователям не показывается всплывающая реклама при скачивании.

[underver.se].t210187.torrent
Трекер: Зарегистрирован   [ 10.06.2021 21:52 ]  

Статус: проверено (by makkol at 11.06.2021 22:09)
Поблагодарили: пока никто не поблагодарил...
Тип торрента: публичный - доступные источники с открытых трекеров: 
Размер: 31,21 GB (занимает 7,13 DVDR, для записи нужно 8 болванок DVDR/RW)
 
 
Похожие темы
Форум Тема Автор Торрент Отв. Посл. сооб.
Зарубежное кино [DVDRip, Low-Res HDRip, и т.д.] Сопротивление воздуха / La resistance de l'air (Фред Гривуа) [2015 г., драма, HDRip] DVO + Original makkol
1 | 0

0 | 1112

16

22.03.2016 23:29

T Зарубежное кино [DVDRip, Low-Res HDRip, и т.д.] Сопротивления банкира / Der Bankier des Widerstands / Bankier van het Verzet (Йорам Люрсен) [2018 г., драма, военный, WEB-DLRip] MVO (Синема УС) makkol
1 | 0

0 | 768

17

14.09.2018 11:08

T Зарубежное кино [DVDRip, Low-Res HDRip, и т.д.] Сопротивления банкира / Der Bankier des Widerstands / Bankier van het Verzet (Йорам Люрсен) [2018 г., драма, военный, WEB-DLRip] MVO (Синема УС) makkol
0 | 0

0 | 790

6

14.09.2018 11:13

Зарубежное кино [DVDRip, Low-Res HDRip, и т.д.] Сопротивление / Resistance (Хонатан Якубович) [2020, Драма, военный, биография, история, BDRip] Dub (IVI) + Sub (Eng) Konin
23 | 1

0 | 181

7

06.06.2021 09:29

Зарубежное кино [DVDRip, Low-Res HDRip, и т.д.] Сопротивление / Resistance (Хонатан Якубович) [2020, Драма, военный, биография, история, BDRip] Dub (IVI) + Sub (Eng) Konin
65 | 2

0 | 172

6

06.06.2021 09:28

Зарубежное кино [DVDRip, Low-Res HDRip, и т.д.] Сопротивление / Resistance (Хонатан Якубович) [2020, Драма, военный, биография, история, BDRip] Dub (iTunes) + Sub (Eng) Konin
67 | 4

0 | 129

7

10.06.2021 21:50

Зарубежное кино [DVDRip, Low-Res HDRip, и т.д.] Сопротивление / Resistance (Хонатан Якубович) [2020, Драма, военный, биография, история, BDRip] Dub (iTunes) + Sub (Eng) Konin
22 | 1

0 | 124

3

10.06.2021 21:51

% Зарубежное кино [HDDVDRip / BDRip / WEB-DL / HDTV 1080/720р] Сопротивление воздуха / La resistance de l'air (Фред Гривуа) [2015 г., драма, BDRip 1080p] MVO 90ytr90
1 | 0

0 | 562

6

19.02.2017 15:36

T Зарубежное кино [HDDVDRip / BDRip / WEB-DL / HDTV 1080/720р] Сопротивления банкира / Der Bankier des Widerstands / Bankier van het Verzet (Йорам Люрсен) [2018 г., драма, военный, WEB-DL 720p] MVO (Синема УС) makkol
0 | 2

0 | 1313

9

14.09.2018 11:19

Зарубежное кино [HDDVDRip / BDRip / WEB-DL / HDTV 1080/720р] Сопротивление / Resistance (Хонатан Якубович) [2020, Драма, военный, биография, история, BDRip 720p] Dub (IVI) + Original + Sub (Eng) Konin
55 | 2

0 | 168

6

06.06.2021 09:38


Яндекс.Метрика powered by Sphinx


В Н И М А Н И Е
Сайт не распространяет и не хранит электронные версии произведений, а лишь бесплатно и без коммерческой выгоды (не требуя взамен платы,
SMS и т.д.) предоставляет доступ к создаваемому пользователями каталогу ссылок на торрент-файлы, которые содержат только списки хеш-сумм.
Убедительная просьба с жалобами обращаться напрямую к пользователю, разместившему торрент файл.

Вверх